Last update: 2017-12-14, 08:17:03

Torrent details

V.A. - MTV X and VH1 Classics   
Artist:
V.A.

Show or Bootleg Title:
MTV X and VH1 Classics

Show Venue:
MTV, VH1 Classic

Source:
DVD - Pro Shot

Video Quality/Production Info:
A

Audio/Video Specs:
General
Complete name : C:\MTV X and VH1 Classics\VIDEO_TS\VTS_01_1.VOB
Format : MPEG-PS
File size : 1 024 MiB
Duration : 1 h 13 min
Overall bit rate mode : Variable
Overall bit rate : 1 954 kb/s
Writing library : Created by Nero

Video
ID : 224 (0xE0)
Format : MPEG Video
Format version : Version 2
Format profile : Main@Main
Format settings : CustomMatrix / BVOP
Format settings, BVOP : Yes
Format settings, Matrix : Custom
Format settings, GOP : M=3, N=15
Format settings, picture st : Frame
Duration : 1 h 13 min
Bit rate mode : Variable
Bit rate : 1 723 kb/s
Maximum bit rate : 9 586 kb/s
Width : 352 pixels
Height : 480 pixels
Display aspect ratio : 4:3
Frame rate : 29.970 (30000/1001) FPS
Standard : NTSC
Color space : YUV
Chroma subsampling : 4:2:0
Bit depth : 8 bits
Scan type : Interlaced
Scan order : Top Field First
Compression mode : Lossy
Bits/(Pixel*Frame) : 0.340
Time code of first frame : 00:00:00:00
Time code source : Group of pictures header
GOP, Open/Closed : Open
GOP, Open/Closed of first f : Closed
Stream size : 903 MiB (88%)
Writing library : Created by Nero

Audio
ID : 189 (0xBD)-128 (0x80)
Format : AC-3
Format/Info : Audio Coding 3
Muxing mode : DVD-Video
Duration : 1 h 13 min
Bit rate mode : Constant
Bit rate : 192 kb/s
Channel(s) : 2 channels
Channel positions : Front: L R
Sampling rate : 48.0 kHz
Frame rate : 31.250 FPS (1536 SPF)
Bit depth : 16 bits
Compression mode : Lossy
Delay relative to video : 30 ms
Stream size : 101 MiB (10%)
Service kind : Complete Main

Menu

Format:
NTSC

Set List/Chapters:
Title 1

AC/DC-Thunderstruck
Telsa-Heaven's trail
Van Halen-Unchained
AC/DC-Money talks
Dio-The last in line
The Clash-Tommy gun
Joan Jett-Do you wanna touch me
Skid Row-Youth gone wild
Billy Squier-In the dark
Natalie Imbruglia-Identify
Def Leppard-Photograph
AC/DC-Sink the pink
Slaughter-Up all night
KISS-Rock n' roll all night (Dazed and confused soundtrack)
Pat Benatar-You better run
The Clash-Train in vain
Dokken-It's not love
Ratt-Lay it down
Autograph-Turn up the radio
Slaughter-Shout it out loud
Poison-Talk dirty to me

Title 2

Van Halen-Pretty woman
Motley Crue-Looks that kill
Helloween-Halloween
Megadeth-Wake up dead
Iron Maiden-Flight of Icarus
Ozzy Osbourne-Shot in the dark (Live)
W.A.S.P.-Wild child
Alice Cooper-The man behind the mask
Krokus-Schools out
A Flock of Seagulls-Space age love song
Iron Maiden-Aces high
Judas Priest-Breaking the law
Blondie-Atomic (Remix)
Damn Yakees-Come again
Damn Yankees-High enough
Damn Yankees-Coming of age
Bangles-If she knew what she wants
The Members-Working girl
White Lion-Radar love
Ozzy Osbourne-Shot in the dark

Title 3

Warrant-Down boys
Van Halen-Jump
Def Leppard-Women
Judas Priest-Heading out to the highway
Joan Jett-Bad reputation
Natalie Imbruglia-One more addiction (From Hard Rock Live)
Natalie Imbruglia-Big mistake
Scorpions-No one like you (Live version)
AC/DC-For those about to rock
Motorhead-Ace of Spades
Iron Maiden-The evil that men do
KISS-Lick it up
Bush-Machinehead
Joan Jett-Crimson and clover
The Donnas-Strutter
Judas Priest-Turbo lover
Aerosmith-The other side
Telsa-Love song
Coal Chamber-Shock the monkey
Sammy Hagar-Mas Tequila
Poison-Unskinny bop
AC/DC-Dirty deeds done dirt cheap
Motorhead-Eat the rich
Fear Factory-Cars

Checksums or Fingerprints:
# MD5 checksums generated by MD5summer (http://www.md5summer.org)
# Generated 04.12.2017 18:17:00

9c8b2fe3412e0efd354cef7467dc2710 *VIDEO_TS/VIDEO_TS.BUP
9c8b2fe3412e0efd354cef7467dc2710 *VIDEO_TS/VIDEO_TS.IFO
3bea3539de9ca11c839a4378bc20fb9b *VIDEO_TS/VIDEO_TS.VOB
971df402695cd8b8019f2d0b13e8c51c *VIDEO_TS/VTS_01_0.BUP
971df402695cd8b8019f2d0b13e8c51c *VIDEO_TS/VTS_01_0.IFO
2f38458b9af70d666641edb6233d3ebe *VIDEO_TS/VTS_01_1.VOB
e9544af7e322608356afdf266b04db61 *VIDEO_TS/VTS_01_2.VOB
3f4b1fddf4d1acdac43adf31d8ce84c1 *VIDEO_TS/VTS_02_0.BUP
3f4b1fddf4d1acdac43adf31d8ce84c1 *VIDEO_TS/VTS_02_0.IFO
91fb9a993284eeb0b413a491dc5104c1 *VIDEO_TS/VTS_02_1.VOB
d8248700f5a120f3803bc6759ff08d51 *VIDEO_TS/VTS_02_2.VOB
041a5a94079ce0d9dae490e4d70a36f3 *VIDEO_TS/VTS_03_0.BUP
041a5a94079ce0d9dae490e4d70a36f3 *VIDEO_TS/VTS_03_0.IFO
82d3d11f85a6c812cbc0e304eabae89a *VIDEO_TS/VTS_03_1.VOB
03bde80a9b63e6dcf6be0a18d09e7652 *VIDEO_TS/VTS_03_2.VOB
f874e1e4d62208cdc6f4e5fdae2e1b33 *mtv x and vh1 classics.txt

ol' rock skool...