Last update: 2017-12-14, 08:17:03

Torrent details

V.A. - Headbanger's Ball (August 13, 1988)   
Artist:
V.A.

Show or Bootleg Title:
Headbanger's Ball (August 13, 1988)

Show Venue:
MTV

Source:
DVD - Pro Shot

Video Quality/Production Info:
A

Audio/Video Specs:
General
Complete name : F:\Headbanger's Ball\Headbanger's Ball (August 13, 1988)\VTS_01_1.VOB
Format : MPEG-PS
File size : 1 024 MiB
Duration : 26 s 314 ms
Overall bit rate mode : Variable
Overall bit rate : 326 Mb/s

Video
ID : 224 (0xE0)
Format : MPEG Video
Format version : Version 2
Format profile : Main@Main
Format settings : BVOP
Format settings, BVOP : Yes
Format settings, Matrix : Default
Format settings, GOP : M=3, N=15
Format settings, picture st : Frame
Duration : 26 s 314 ms
Bit rate mode : Variable
Bit rate : 320 Mb/s
Maximum bit rate : 9 558 kb/s
Width : 704 pixels
Height : 480 pixels
Display aspect ratio : 4:3
Frame rate : 29.970 (30000/1001) FPS
Standard : NTSC
Color space : YUV
Chroma subsampling : 4:2:0
Bit depth : 8 bits
Scan type : Interlaced
Scan order : Top Field First
Compression mode : Lossy
Bits/(Pixel*Frame) : 31.566
Time code of first frame : 00:00:00:00
Time code source : Group of pictures header
GOP, Open/Closed : Open
GOP, Open/Closed of first f : Closed
Stream size : 1 003 MiB (98%)
Color primaries : BT.601 NTSC
Transfer characteristics : BT.601
Matrix coefficients : BT.601

Audio
ID : 189 (0xBD)-128 (0x80)
Format : AC-3
Format/Info : Audio Coding 3
Muxing mode : DVD-Video
Duration : 25 s 850 ms
Bit rate mode : Constant
Bit rate : 256 kb/s
Channel(s) : 2 channels
Channel positions : Front: L R
Sampling rate : 48.0 kHz
Frame rate : 31.250 FPS (1536 SPF)
Bit depth : 16 bits
Compression mode : Lossy
Stream size : 808 KiB (0%)
Service kind : Complete Main

Menu

Format:
NTSC

Set List/Chapters:
Aerosmith - Rag Doll
Scorpions - Believe In Love
Ozzy Osbourne - Lighting Strikes
Def Leppard - Love Bites
White Lion - Tell Me
Kiss - I Love It Loud
Motley Crue - Wild Side
Only Child - Save A Place In Your Heart
Judas Priest - Johnny B. Goode
Lita Ford - Back To the Cave
Guns N' Roses - Sweet Child Of Mine
Cinderella - Gypsy Road
Deep Purple - Hush
Stryper - Always There For You
Van Halen - When It's Love
Femme Fatale - Waiting For the Big One
Testament - Trial By Fire
Europe - Superstitious
Iron Maiden - The Evil That Men Do
Faster Pussycat - Bathroom Wall
Jimmy Page - Wasting My Time
Poison - Fallen Angel
King Diamond - Welcome Home
AC/DC - Jailbreak
Hurricane - I'm On To You
Dokken - Heaven Sent
L.A. Guns - Electric Gypsy
Winger - Madalaine
Death Angel - Bored
Britny Fox - Long Way To Love
Riot - Bloodstreets
Nuclear Assault - Brainwashed

Checksums or Fingerprints:
# MD5 checksums generated by MD5summer (http://www.md5summer.org)
# Generated 07.12.2017 15:38:04

4485f53a13dedace32d4a4cf12e1081f *Video_ts/VIDEO_TS.BUP
4485f53a13dedace32d4a4cf12e1081f *Video_ts/VIDEO_TS.IFO
0fe2202bdbba202e129ab7740800b238 *Video_ts/VIDEO_TS.VOB
bf68b9ff9abc021dd14e16a2ff133b07 *Video_ts/VTS_01_0.BUP
bf68b9ff9abc021dd14e16a2ff133b07 *Video_ts/VTS_01_0.IFO
46035a94034696b26d793ff8822bcb18 *Video_ts/VTS_01_1.VOB
76f408e6439b4ddeae3e58aaa335bbd5 *Video_ts/VTS_01_2.VOB
bc6961c333eed4a719ba594da82b2fd4 *Video_ts/VTS_01_3.VOB
a71f8d1d548af0b826fc58bd812c2fbe *Video_ts/VTS_01_4.VOB

Hosted by Rob Halford of Judas Priest