Last update: 2018-09-19, 21:19:09

Torrent details

motorhead - Notthingham England 1980-08-20   
Artist:
motorhead

Show or Bootleg Title:
Notthingham England 1980-08-20

Show Venue:


Source:
DVD - Pro Shot

Video Quality/Production Info:
ok quality

Audio/Video Specs:
General
Complete name : C:\Users\Juzzi\Downloads\Motorhead - 1981-08-20 Nottingham,England\VIDEO_TS\VTS_01_1.VOB
Format : MPEG-PS
File size : 977 MiB
Duration : 14 min 12 s
Overall bit rate mode : Variable
Overall bit rate : 9 611 kb/s
Writing library : encoded by TMPGEnc MPEG Editor Version. 1.0.1.59

Video
ID : 224 (0xE0)
Format : MPEG Video
Format version : Version 2
Format profile : Main@Main
Format settings, BVOP : Yes
Format settings, Matrix : Custom
Format settings, GOP : M=3, N=15
Format settings, picture struc : Frame
Duration : 14 min 12 s
Bit rate mode : Variable
Bit rate : 7 884 kb/s
Maximum bit rate : 7 992 kb/s
Width : 720 pixels
Height : 480 pixels
Display aspect ratio : 4:3
Frame rate : 29.970 (30000/1001) FPS
Standard : NTSC
Color space : YUV
Chroma subsampling : 4:2:0
Bit depth : 8 bits
Scan type : Interlaced
Scan order : Top Field First
Compression mode : Lossy
Bits/(Pixel*Frame) : 0.761
Time code of first frame : 00:00:00:00
Time code source : Group of pictures header
Stream size : 801 MiB (82%)
Writing library : TMPGEnc MPEG Editor 1.0.1.59
Color primaries : BT.601 NTSC
Transfer characteristics : BT.601
Matrix coefficients : BT.601

Audio
ID : 189 (0xBD)-160 (0xA0)
Format : PCM
Format settings, Endianness : Big
Format settings, Sign : Signed
Muxing mode : DVD-Video
Duration : 14 min 12 s
Bit rate mode : Constant
Bit rate : 1 536 kb/s
Channel(s) : 2 channels
Sampling rate : 48.0 kHz
Bit depth : 16 bits
Stream size : 156 MiB (16%)

Menu

Format:
NTSC

Set List/Chapters:
Great concert footage from legendary line-up era...

Theatre Royal, Nottingham, England 1980-08-20

Overkill
Too late,too late
Shoot you in the back
Step down
Jailbait
Leaving here
Metropolis
Train kept a rollin`
Bomber
Motorhead
+ In recordshop and interview 1981

Checksums or Fingerprints:
# MD5 checksums generated by MD5summer (http://www.md5summer.org)
# Generated 12.1.2018 23:46:40

3a1c6c2d85cc7a7034aabadb435fd340 *VIDEO_TS.BUP
3a1c6c2d85cc7a7034aabadb435fd340 *VIDEO_TS.IFO
d458e9b527960065d2429f50f981ffef *VIDEO_TS.VOB
75e913f880d961d7ec583fe1e7e6a89a *VTS_01_0.BUP
75e913f880d961d7ec583fe1e7e6a89a *VTS_01_0.IFO
2757e64615fdca45231baa96098adf03 *VTS_01_1.VOB
5db9f6a34c3d59dc8a74be535e360877 *VTS_01_2.VOB
1e416c5059b343b372c5773f0d3a6c57 *VTS_01_3.VOB
2d102c18ab2c4a69babe9c53b15db1b8 *VTS_02_0.BUP
2d102c18ab2c4a69babe9c53b15db1b8 *VTS_02_0.IFO
b60f8a6a7cea28e69e39fefda328f9e4 *VTS_02_1.VOB
3a1c6c2d85cc7a7034aabadb435fd340 *VIDEO_TS.BUP
3a1c6c2d85cc7a7034aabadb435fd340 *VIDEO_TS.IFO
d458e9b527960065d2429f50f981ffef *VIDEO_TS.VOB
75e913f880d961d7ec583fe1e7e6a89a *VTS_01_0.BUP
75e913f880d961d7ec583fe1e7e6a89a *VTS_01_0.IFO
2757e64615fdca45231baa96098adf03 *VTS_01_1.VOB
5db9f6a34c3d59dc8a74be535e360877 *VTS_01_2.VOB
1e416c5059b343b372c5773f0d3a6c57 *VTS_01_3.VOB
2d102c18ab2c4a69babe9c53b15db1b8 *VTS_02_0.BUP
2d102c18ab2c4a69babe9c53b15db1b8 *VTS_02_0.IFO
b60f8a6a7cea28e69e39fefda328f9e4 *VTS_02_1.VOB