Last update: 2018-09-22, 09:17:44

Torrent details

Hanoi rocks - Rome,Italy 2005-02-16   
Artist:
Hanoi rocks

Show or Bootleg Title:
Rome,Italy 2005-02-16

Show Venue:


Source:
DVD - Aud

Video Quality/Production Info:
good quality

Audio/Video Specs:
General
Complete name : C:\Users\Juzzi\Downloads\Hanoi rocks - Rome Italy 2005\VIDEO_TS\VTS_01_4.VOB
Format : MPEG-PS
File size : 471 MiB
Duration : 7 min 11 s
Overall bit rate mode : Variable
Overall bit rate : 9 159 kb/s

Video
ID : 224 (0xE0)
Format : MPEG Video
Format version : Version 2
Format profile : Main@Main
Format settings, BVOP : Yes
Format settings, Matrix : Custom
Format settings, GOP : M=3, N=15
Format settings, picture struc : Frame
Duration : 7 min 10 s
Bit rate mode : Variable
Bit rate : 7 441 kb/s
Maximum bit rate : 8 000 kb/s
Width : 720 pixels
Height : 576 pixels
Display aspect ratio : 4:3
Frame rate : 25.000 FPS
Standard : PAL
Color space : YUV
Chroma subsampling : 4:2:0
Bit depth : 8 bits
Scan type : Interlaced
Scan order : Top Field First
Compression mode : Lossy
Bits/(Pixel*Frame) : 0.718
Time code of first frame : 00:46:43:15
Time code source : Group of pictures header
GOP, Open/Closed : Open
Stream size : 382 MiB (81%)
Color primaries : BT.601 NTSC
Transfer characteristics : BT.601
Matrix coefficients : BT.601

Audio
ID : 189 (0xBD)-160 (0xA0)
Format : PCM
Format settings, Endianness : Big
Format settings, Sign : Signed
Muxing mode : DVD-Video
Duration : 7 min 11 s
Bit rate mode : Constant
Bit rate : 1 536 kb/s
Channel(s) : 2 channels
Sampling rate : 48.0 kHz
Bit depth : 16 bits
Delay relative to video : -694 ms
Stream size : 79.0 MiB (17%)

Menu

Format:
PAL

Set List/Chapters:
Obscured
Delirious
High School
Day Late
Malibu Beach Nightmare
Bad News
Don't You Ever Leave Me
People Like Me
Oriental Beat
Tragedy
Up Around the Bend
I Feel Alright

Checksums or Fingerprints:
# MD5 checksums generated by MD5summer (http://www.md5summer.org)
# Generated 14.1.2018 1:08:51

feda4e86d7f1ac0d865fd0e7f9cf6150 *VIDEO_TS.BUP
feda4e86d7f1ac0d865fd0e7f9cf6150 *VIDEO_TS.IFO
c46253a11ac2276e038dbb8a947e3e2d *VTS_01_0.BUP
c46253a11ac2276e038dbb8a947e3e2d *VTS_01_0.IFO
019b0005a39b8fff031d6525338c2195 *VTS_01_1.VOB
39692b353e15fca1e43ba468bbf53a39 *VTS_01_2.VOB
040c6edf61e52f88710e7a982d8ab8d8 *VTS_01_3.VOB
21cd16d1f5c7f672e14768b986181726 *VTS_01_4.VOB