Last update: 2018-06-19, 18:19:04

Torrent details

Hanoi rocks - Korso,Vantaa Finland 2004-07-31   
Artist:
Hanoi rocks

Show or Bootleg Title:
Korso,Vantaa Finland 2004-07-31

Show Venue:
Ankkarock 2004

Source:
DVD - Pro Shot

Video Quality/Production Info:
good quality

Audio/Video Specs:
General
Complete name : C:\Users\Juzzi\Downloads\Hanoi rocks - Ankkarock 2004\VIDEO_TS\VTS_01_1.VOB
Format : MPEG-PS
File size : 1 024 MiB
Duration : 35 min 14 s
Overall bit rate mode : Variable
Overall bit rate : 4 063 kb/s

Video
ID : 224 (0xE0)
Format : MPEG Video
Format version : Version 2
Format profile : Main@Main
Format settings, BVOP : Yes
Format settings, Matrix : Custom
Format settings, GOP : M=3, N=12
Format settings, picture struc : Frame
Duration : 35 min 14 s
Bit rate mode : Variable
Bit rate : 3 758 kb/s
Width : 720 pixels
Height : 576 pixels
Display aspect ratio : 16:9
Active Format Description : Full frame 16:9 image
Frame rate : 25.000 FPS
Standard : PAL
Color space : YUV
Chroma subsampling : 4:2:0
Bit depth : 8 bits
Scan type : Interlaced
Scan order : Top Field First
Compression mode : Lossy
Bits/(Pixel*Frame) : 0.362
Time code of first frame : 00:00:00:00
Time code source : Group of pictures header
GOP, Open/Closed : Open
GOP, Open/Closed of first fram : Closed
Stream size : 947 MiB (92%)

Audio
ID : 189 (0xBD)-128 (0x80)
Format : AC-3
Format/Info : Audio Coding 3
Format settings, Endianness : Big
Muxing mode : DVD-Video
Duration : 35 min 14 s
Bit rate mode : Constant
Bit rate : 224 kb/s
Channel(s) : 2 channels
Channel positions : Front: L R
Sampling rate : 48.0 kHz
Frame rate : 31.250 FPS (1536 SPF)
Bit depth : 16 bits
Compression mode : Lossy
Delay relative to video : -8 ms
Stream size : 56.5 MiB (6%)
Service kind : Complete Main

Menu

Format:
PAL

Set List/Chapters:
Setlist :

A day late a dollar short
Ice cream summer
Lightning bar blues
Delirious
High school
Don`t you ever leave me
Keep our fire burnin`
People like me
Tragedy
Up around the bend



ENJOY MY FRIENDS !!!

Checksums or Fingerprints:
# MD5 checksums generated by MD5summer (http://www.md5summer.org)
# Generated 14.1.2018 0:43:33

bc31be8a7ed2aee80c41085fe5b6c063 *VIDEO_TS/VIDEO_TS.BUP
bc31be8a7ed2aee80c41085fe5b6c063 *VIDEO_TS/VIDEO_TS.IFO
6fb2e9ad07791f48a7d02cdf3f26ec99 *VIDEO_TS/VTS_01_0.BUP
6fb2e9ad07791f48a7d02cdf3f26ec99 *VIDEO_TS/VTS_01_0.IFO
04f0ef885a39b1c64095aae6c49a85d2 *VIDEO_TS/VTS_01_1.VOB
8d3a41775a63e8355bd0c525423e3a53 *VIDEO_TS/VTS_01_2.VOB
bc31be8a7ed2aee80c41085fe5b6c063 *VIDEO_TS/VIDEO_TS.BUP
bc31be8a7ed2aee80c41085fe5b6c063 *VIDEO_TS/VIDEO_TS.IFO
6fb2e9ad07791f48a7d02cdf3f26ec99 *VIDEO_TS/VTS_01_0.BUP
6fb2e9ad07791f48a7d02cdf3f26ec99 *VIDEO_TS/VTS_01_0.IFO
04f0ef885a39b1c64095aae6c49a85d2 *VIDEO_TS/VTS_01_1.VOB
8d3a41775a63e8355bd0c525423e3a53 *VIDEO_TS/VTS_01_2.VOB