Last update: 2018-11-13, 00:16:58

Torrent details

Kiss - 1990-06-22 Binghampton, NY, USA   
Artist:
Kiss

Show or Bootleg Title:
1990-06-22 Binghampton, NY, USA

Show Venue:
Broome County Arena

Source:
DVD - Audience

Video Quality/Production Info:


Audio/Video Specs:
General
Format : MPEG-PS
File size : 1 024 MiB
Duration : 24 min 48 s
Overall bit rate mode : Variable
Overall bit rate : 5 769 kb/s

Video
ID : 224 (0xE0)
Format : MPEG Video
Format version : Version 2
Format profile : Main@Main
Format settings, BVOP : Yes
Format settings, Matrix : Default
Format settings, GOP : M=3, N=15
Format settings, picture struc : Frame
Duration : 24 min 48 s
Bit rate mode : Variable
Bit rate : 5 462 kb/s
Maximum bit rate : 8 000 kb/s
Width : 720 pixels
Height : 480 pixels
Display aspect ratio : 4:3
Frame rate : 29.970 (30000/1001) FPS
Standard : NTSC
Color space : YUV
Chroma subsampling : 4:2:0
Bit depth : 8 bits
Scan type : Interlaced
Scan order : Bottom Field First
Compression mode : Lossy
Bits/(Pixel*Frame) : 0.527
Time code of first frame : 00:00:00:00
Time code source : Group of pictures header
GOP, Open/Closed : Open
GOP, Open/Closed of first fram : Closed
Stream size : 970 MiB (95%)

Audio
ID : 189 (0xBD)-128 (0x80)
Format : AC-3
Format/Info : Audio Coding 3
Format settings, Endianness : Big
Muxing mode : DVD-Video
Duration : 24 min 48 s
Bit rate mode : Constant
Bit rate : 192 kb/s
Channel(s) : 2 channels
Channel positions : Front: L R
Sampling rate : 48.0 kHz
Frame rate : 31.250 FPS (1536 SPF)
Bit depth : 16 bits
Compression mode : Lossy
Stream size : 34.1 MiB (3%)
Service kind : Complete Main

Format:
NTSC

Set List/Chapters:
I Stole Your Love
Deuce
Heaven's On Fire
Rise To It
Fits Like A Glove
Crazy Crazy Nights
Strutter
Calling Dr. Love
Hide Your Heart
Black Diamond
Shout It Out Loud
Lick It Up
Cold Gin
Forever
God of Thunder
Under The Gun
Tears Are Falling
I Love It Loud
Love Gun
Detroit Rock City
I Want You
Rock And Roll All Nite

Checksums or Fingerprints:
# MD5 checksums generated by MD5summer (http://www.md5summer.org)
# Generated 8/11/2018 10:52:14 AM

84e8e09b91bd761ba75257fd339de7f7 *VIDEO_TS.BUP
84e8e09b91bd761ba75257fd339de7f7 *VIDEO_TS.IFO
ab8ac4a74bd190348ea903a445462520 *VIDEO_TS.VOB
4e4fa1939b7d8828c25800860f23cd95 *VTS_01_0.BUP
4e4fa1939b7d8828c25800860f23cd95 *VTS_01_0.IFO
57787c6efe4945ec8fda7fcb1daeceeb *VTS_01_1.VOB
de78ce1ff002955674d6a227afcf3a01 *VTS_01_2.VOB
70c1a5ed248a3a6803af3c4235c9a86b *VTS_01_3.VOB
f6cddee56b68fe0d02b475a69e66295a *VTS_01_4.VOB