Last update: 2018-11-13, 00:16:58

Torrent details

Kiss - 1990-05-08 Tulsa, OK, USA   
Artist:
Kiss

Show or Bootleg Title:
1990-05-08 Tulsa, OK, USA

Show Venue:
Expo Square Pavilion

Source:
DVD - Audience

Video Quality/Production Info:
Master

Audio/Video Specs:
General
Format : MPEG-PS
File size : 1 024 MiB
Duration : 9 s 594 ms
Overall bit rate mode : Variable
Overall bit rate : 895 Mb/s

Video
ID : 224 (0xE0)
Format : MPEG Video
Format version : Version 2
Format profile : Main@Main
Format settings, BVOP : Yes
Format settings, Matrix : Custom
Format settings, GOP : M=3, N=15
Format settings, picture struc : Frame
Duration : 9 s 594 ms
Bit rate mode : Variable
Bit rate : 877 Mb/s
Maximum bit rate : 9 586 kb/s
Width : 704 pixels
Height : 480 pixels
Display aspect ratio : 4:3
Frame rate : 29.970 (30000/1001) FPS
Standard : NTSC
Color space : YUV
Chroma subsampling : 4:2:0
Bit depth : 8 bits
Scan type : Interlaced
Scan order : Top Field First
Compression mode : Lossy
Bits/(Pixel*Frame) : 86.623
Time code of first frame : 00:00:00:00
Time code source : Group of pictures header
Stream size : 1 005 MiB (98%)
Color primaries : BT.601 NTSC
Transfer characteristics : BT.601
Matrix coefficients : BT.601

Audio
ID : 189 (0xBD)-128 (0x80)
Format : AC-3
Format/Info : Audio Coding 3
Format settings, Endianness : Big
Muxing mode : DVD-Video
Duration : 9 s 179 ms
Bit rate mode : Constant
Bit rate : 256 kb/s
Channel(s) : 2 channels
Channel positions : Front: L R
Sampling rate : 48.0 kHz
Frame rate : 31.250 FPS (1536 SPF)
Bit depth : 16 bits
Compression mode : Lossy
Stream size : 287 KiB (0%)
Service kind : Complete Main

Format:
NTSC

Set List/Chapters:
I Stole Your Love
Deuce
Heaven's On Fire
Rise To It
Fits Like A Glove
Crazy Crazy Nights
Strutter
Calling Dr. Love
Hide Your Heart
Black Diamond
Shout It Out Loud
Lick It Up
Cold Gin
Forever
God of Thunder
Under The Gun
Tears Are Falling
I Love It Loud
Love Gun
Detroit Rock City
I Want You
Rock And Roll All Nite

Checksums or Fingerprints:
# MD5 checksums generated by MD5summer (http://www.md5summer.org)
# Generated 8/11/2018 10:44:15 AM

585e3c401558a4d12f213cfb162260fc *VIDEO_TS.BUP
585e3c401558a4d12f213cfb162260fc *VIDEO_TS.IFO
fb834aaa60a524cf3ee46ab26a7204f8 *VIDEO_TS.VOB
667e495de9ad9df9e3ded4faf635deb5 *VTS_01_0.BUP
667e495de9ad9df9e3ded4faf635deb5 *VTS_01_0.IFO
ee9c13fea4c5a151056e3b2ab0609987 *VTS_01_1.VOB
94aa46f5ab84c506bca7b78a74584cde *VTS_01_2.VOB
34813fb7f6833646f1cd1efd28035c94 *VTS_01_3.VOB
1a30745714fe6b2f28f4801e4dc5e3b6 *VTS_01_4.VOB