Last update: 2018-11-13, 00:16:58

Torrent details

Motley Crue - 2014-07-21 Los Angeles, CA, USA (DVD9)   
Artist:
Motley Crue

Show or Bootleg Title:
2014-07-21 Los Angeles, CA, USA (DVD9)

Show Venue:
Hollywood Bowl

Source:
DVD - Audience

Video Quality/Production Info:
Multicam

Audio/Video Specs:
General
Complete name : G:\Motley Crue\Dual Layer Shows\2014-07-21 Hollywood Bowl, Los Angeles, CA (Audience) (Dual Layer DVD) (103 mins)\DVD\VTS_01_1.VOB
Format : MPEG-PS
File size : 1 024 MiB
Duration : 17 min 9 s
Overall bit rate mode : Constant
Overall bit rate : 8 344 kb/s

Video
ID : 224 (0xE0)
Format : MPEG Video
Format version : Version 2
Format profile : Main@Main
Format settings, BVOP : Yes
Format settings, Matrix : Default
Format settings, GOP : M=3, N=15
Format settings, picture struc : Frame
Duration : 17 min 9 s
Bit rate mode : Constant
Bit rate : 8 000 kb/s
Width : 720 pixels
Height : 480 pixels
Display aspect ratio : 16:9
Frame rate : 29.970 (30000/1001) FPS
Standard : NTSC
Color space : YUV
Chroma subsampling : 4:2:0
Bit depth : 8 bits
Scan type : Interlaced
Scan order : Bottom Field First
Compression mode : Lossy
Bits/(Pixel*Frame) : 0.772
Time code of first frame : 00:00:00;00
Time code source : Group of pictures header
GOP, Open/Closed : Closed
Stream size : 980 MiB (96%)

Audio
ID : 189 (0xBD)-128 (0x80)
Format : AC-3
Format/Info : Audio Coding 3
Format settings, Endianness : Big
Muxing mode : DVD-Video
Duration : 17 min 9 s
Bit rate mode : Constant
Bit rate : 192 kb/s
Channel(s) : 2 channels
Channel positions : Front: L R
Sampling rate : 48.0 kHz
Frame rate : 31.250 FPS (1536 SPF)
Bit depth : 16 bits
Compression mode : Lossy
Stream size : 23.6 MiB (2%)
Service kind : Complete Main

Format:
NTSC

Set List/Chapters:
Saints of Los Angeles
Wild Side
Primal Scream
Same Ol' Situation (S.O.S.)
Looks That Kill
On With The Show
Too Fast for Love
Smokin' In The Boys' Room
Without You
Mutherfucker Of The Year
Anarchy In The U.K.
Dr. Feelgood
Shout At The Devil
Don't Go Away Mad (Just Go Away)
Guitar Solo
Live Wire
Too Young to Fall in Love
Girls, Girls, Girls
Kickstart My Heart
Home Sweet Home

Checksums or Fingerprints:
# MD5 checksums generated by MD5summer (http://www.md5summer.org)
# Generated 8/11/2018 10:29:28 AM

591fb10ab0d9b415eb8acb2aa9660f4b *DVD/VIDEO_TS.BUP
591fb10ab0d9b415eb8acb2aa9660f4b *DVD/VIDEO_TS.IFO
ebf137909fb841b9a08fee50d55532e7 *DVD/VIDEO_TS.VOB
5a9c430133d7e6ad29a6cbcdecc2c15a *DVD/VTS_01_0.BUP
14c3871fb86ffa7826c69448e0886a4f *DVD/VTS_01_0.IFO
a257c47cd6723f21d1d1b7f8cf18ca79 *DVD/VTS_01_0.VOB
3a48424e70df6008a69e6ae87bdb55ec *DVD/VTS_01_1.VOB
d9210bc509bd91574808994006256f2e *DVD/VTS_01_2.VOB
067507e1b981e6016bf642f374e7f2b5 *DVD/VTS_01_3.VOB
2b886b52626ac254dd2f43913bc3d61c *DVD/VTS_01_4.VOB
53c9c9d2acba3a964b139b40a7a8b40f *DVD/VTS_01_5.VOB
a7ba4e7c3ea40c8b29731e06a77b0048 *DVD/VTS_01_6.VOB
b8c02013f585959ecab7ebe7b17e8b06 *DVD/VTS_01_7.VOB