Last update: 2018-11-13, 00:16:58

Torrent details

Kiss - 1990-06-28 Uniondale, NY, USA   
Artist:
Kiss

Show or Bootleg Title:
1990-06-28 Uniondale, NY, USA

Show Venue:
Nassau Veterans Memorial Coliseum

Source:
DVD - Audience

Video Quality/Production Info:
Living After Midnight Productions

Audio/Video Specs:
General
Format : MPEG-PS
File size : 1 023 MiB
Duration : 8 s 647 ms
Overall bit rate mode : Variable
Overall bit rate : 993 Mb/s

Video
ID : 224 (0xE0)
Format : MPEG Video
Format version : Version 2
Format profile : Main@Main
Format settings, BVOP : Yes
Format settings, Matrix : Custom
Format settings, GOP : M=3, N=15
Format settings, picture struc : Frame
Duration : 8 s 544 ms
Bit rate mode : Variable
Bit rate : 973 Mb/s
Maximum bit rate : 9 586 kb/s
Width : 704 pixels
Height : 480 pixels
Display aspect ratio : 4:3
Frame rate : 29.970 (30000/1001) FPS
Standard : NTSC
Color space : YUV
Chroma subsampling : 4:2:0
Bit depth : 8 bits
Scan type : Interlaced
Scan order : Top Field First
Compression mode : Lossy
Bits/(Pixel*Frame) : 96.061
Time code of first frame : 00:23:56:00
Time code source : Group of pictures header
GOP, Open/Closed : Open
Stream size : 991 MiB (97%)
Color primaries : BT.601 NTSC
Transfer characteristics : BT.601
Matrix coefficients : BT.601

Audio
ID : 189 (0xBD)-128 (0x80)
Format : AC-3
Format/Info : Audio Coding 3
Format settings, Endianness : Big
Muxing mode : DVD-Video
Duration : 8 s 647 ms
Bit rate mode : Constant
Bit rate : 256 kb/s
Channel(s) : 2 channels
Channel positions : Front: L R
Sampling rate : 48.0 kHz
Frame rate : 31.250 FPS (1536 SPF)
Bit depth : 16 bits
Compression mode : Lossy
Delay relative to video : -307 ms
Stream size : 270 KiB (0%)
Service kind : Complete Main

Format:
NTSC

Set List/Chapters:
I Stole Your Love
Deuce
Heaven's On Fire
Rise To It
Fits Like A Glove
Crazy Crazy Nights
Strutter
Calling Dr. Love
Hide Your Heart
Black Diamond
Shout It Out Loud
Lick It Up
Cold Gin
Forever
God of Thunder
Under The Gun
Tears Are Falling
I Love It Loud
Love Gun
Detroit Rock City
I Want You
Rock And Roll All Nite

Checksums or Fingerprints:
# MD5 checksums generated by MD5summer (http://www.md5summer.org)
# Generated 8/11/2018 11:53:13 AM

50936b0df72bdc11ec7a16656a958593 *VIDEO_TS.BUP
50936b0df72bdc11ec7a16656a958593 *VIDEO_TS.IFO
d36ad936ff5ddb79bb314a356ee53c6e *VIDEO_TS.VOB
09bcec05f8a77c9e5fb9b7cb9323fe37 *VTS_01_0.BUP
09bcec05f8a77c9e5fb9b7cb9323fe37 *VTS_01_0.IFO
13e888d4df64cb1d70d2a41a0f87a831 *VTS_01_1.VOB
b3d09cb6ff5aa0e81e38301ecc546e7b *VTS_01_2.VOB
aa2376e2f193e402665ae7714c73943e *VTS_01_3.VOB
eaa071042a5e61660393a115e5056c1e *VTS_01_4.VOB
626ac6f8e228d20cb5f9a54a45ea3d93 *VTS_01_5.VOB