Last update: 2018-11-13, 00:16:58

Torrent details

Kiss - 1990-06-27 Allentown, PA, USA   
Artist:
Kiss

Show or Bootleg Title:
1990-06-27 Allentown, PA, USA

Show Venue:
Great Allentown Fair Grandstand

Source:
DVD - Audience

Video Quality/Production Info:
Incomplete Show

Audio/Video Specs:
General
Format : MPEG-PS
File size : 1 023 MiB
Duration : 13 s 541 ms
Overall bit rate mode : Variable
Overall bit rate : 634 Mb/s

Video
ID : 224 (0xE0)
Format : MPEG Video
Format version : Version 2
Format profile : Main@Main
Format settings, BVOP : Yes
Format settings, Matrix : Custom
Format settings, GOP : M=3, N=15
Format settings, picture struc : Frame
Duration : 13 s 541 ms
Bit rate mode : Variable
Bit rate : 621 Mb/s
Maximum bit rate : 9 586 kb/s
Width : 704 pixels
Height : 480 pixels
Display aspect ratio : 4:3
Frame rate : 29.970 (30000/1001) FPS
Standard : NTSC
Color space : YUV
Chroma subsampling : 4:2:0
Bit depth : 8 bits
Scan type : Interlaced
Scan order : Top Field First
Compression mode : Lossy
Bits/(Pixel*Frame) : 61.334
Time code of first frame : 00:00:00:00
Time code source : Group of pictures header
GOP, Open/Closed : Open
GOP, Open/Closed of first fram : Closed
Stream size : 1 003 MiB (98%)
Color primaries : BT.601 NTSC
Transfer characteristics : BT.601
Matrix coefficients : BT.601

Audio
ID : 189 (0xBD)-128 (0x80)
Format : AC-3
Format/Info : Audio Coding 3
Format settings, Endianness : Big
Muxing mode : DVD-Video
Duration : 13 s 11 ms
Bit rate mode : Constant
Bit rate : 256 kb/s
Channel(s) : 2 channels
Channel positions : Front: L R
Sampling rate : 48.0 kHz
Frame rate : 31.250 FPS (1536 SPF)
Bit depth : 16 bits
Compression mode : Lossy
Stream size : 407 KiB (0%)
Service kind : Complete Main

Format:
NTSC

Set List/Chapters:
Rise To It
Fits Like A Glove
Hide Your Heart
Lick It Up
God of Thunder
Forever
Cold Gin
Tears Are Falling
I Love It Loud
Love Gun
Detroit Rock City
I Want You
Rock And Roll All Nite

Checksums or Fingerprints:
# MD5 checksums generated by MD5summer (http://www.md5summer.org)
# Generated 8/11/2018 11:16:01 AM

73beaac25fc811a533abcd35036fa642 *VIDEO_TS.BUP
73beaac25fc811a533abcd35036fa642 *VIDEO_TS.IFO
1d20163988a40924206272aa67a948c9 *VIDEO_TS.VOB
9c769d3e5f63150c4a4cbb8e677509fa *VTS_01_0.BUP
9c769d3e5f63150c4a4cbb8e677509fa *VTS_01_0.IFO
63f14db5d786d9f1f7bdcef5981e7f6e *VTS_01_1.VOB
bb9c5da06cb7b1ddb3f9d030549b568d *VTS_01_2.VOB
91cc68b17140d86b269f69a08d1252aa *VTS_01_3.VOB
d91a29fa4ef6b8864d850a4851e0ab65 *VTS_01_4.VOB