Last update: 2018-11-13, 00:16:58

Torrent details

Kiss - 1995-07-11 St. Louis, MO, USA   
Artist:
Kiss

Show or Bootleg Title:
1995-07-11 St. Louis, MO, USA

Show Venue:
Airport Hilton

Source:
DVD - Audience

Video Quality/Production Info:


Audio/Video Specs:
General
Format : MPEG-PS
File size : 1 023 MiB
Duration : 30 min 45 s
Overall bit rate mode : Variable
Overall bit rate : 4 653 kb/s

Video
ID : 224 (0xE0)
Format : MPEG Video
Format version : Version 2
Format profile : Main@Main
Format settings, BVOP : Yes
Format settings, Matrix : Custom
Format settings, GOP : M=3, N=15
Format settings, picture struc : Frame
Duration : 30 min 45 s
Bit rate mode : Variable
Bit rate : 4 304 kb/s
Maximum bit rate : 9 558 kb/s
Width : 704 pixels
Height : 480 pixels
Display aspect ratio : 4:3
Frame rate : 29.970 (30000/1001) FPS
Standard : NTSC
Color space : YUV
Chroma subsampling : 4:2:0
Bit depth : 8 bits
Scan type : Interlaced
Scan order : Top Field First
Compression mode : Lossy
Bits/(Pixel*Frame) : 0.425
Time code of first frame : 00:00:00:00
Time code source : Group of pictures header
Stream size : 947 MiB (93%)
Color primaries : BT.601 NTSC
Transfer characteristics : BT.601
Matrix coefficients : BT.601

Audio
ID : 189 (0xBD)-128 (0x80)
Format : AC-3
Format/Info : Audio Coding 3
Format settings, Endianness : Big
Muxing mode : DVD-Video
Duration : 30 min 44 s
Bit rate mode : Constant
Bit rate : 256 kb/s
Channel(s) : 2 channels
Channel positions : Front: L R
Sampling rate : 48.0 kHz
Frame rate : 31.250 FPS (1536 SPF)
Bit depth : 16 bits
Compression mode : Lossy
Stream size : 56.3 MiB (6%)
Service kind : Complete Main

Format:
NTSC

Set List/Chapters:
Do You Love Me
Comin' Home
A World Without Heroes
Let Me Know
Take Me
Domino
Rock Bottom
Mr. Speed
Nothin' to Lose
Firehouse
Goin' Blind
Hard Luck Woman
Plaster Caster
Sure Know Something
Calling Dr. Love
Got to Choose
God of Thunder
Shandi
See You Tonite
(Gene Simmons song)
Makin' Love
Christine Sixteen
Love Theme from Kiss
I Still Love You
Black Diamond
I Want You
Heaven's on Fire
Forever

Checksums or Fingerprints:
# MD5 checksums generated by MD5summer (http://www.md5summer.org)
# Generated 8/11/2018 1:05:34 PM

b89f066a46dc5129531f894cf639ffb2 *VIDEO_TS.BUP
b89f066a46dc5129531f894cf639ffb2 *VIDEO_TS.IFO
b30b215c6b6f5b8836aff5e0080f3d8c *VIDEO_TS.VOB
08567470eb054619a317952efcd65de5 *VTS_01_0.BUP
08567470eb054619a317952efcd65de5 *VTS_01_0.IFO
0b9382779d47bb273bbcd2c5c766b706 *VTS_01_1.VOB
a27c429e17ea6f53473bc7e808d6d632 *VTS_01_2.VOB
9b5a3302abcdc6bd517e174a2f13b345 *VTS_01_3.VOB
ce5e58dfd50e4ef9a799d2b3b1e92d88 *VTS_01_4.VOB