Last update: 2018-11-13, 00:16:58

Torrent details

Kiss - 1995-07-09 Nashville, TN, USA   
Artist:
Kiss

Show or Bootleg Title:
1995-07-09 Nashville, TN, USA

Show Venue:
Convention Center

Source:
DVD - Audience

Video Quality/Production Info:
Unchained Edition

Audio/Video Specs:
General
Format : MPEG-PS
File size : 1 024 MiB
Duration : 31 min 33 s
Overall bit rate mode : Variable
Overall bit rate : 4 536 kb/s

Video
ID : 224 (0xE0)
Format : MPEG Video
Format version : Version 2
Format profile : Main@Main
Format settings, BVOP : Yes
Format settings, Matrix : Custom
Format settings, GOP : M=3, N=12
Format settings, picture struc : Frame
Duration : 31 min 33 s
Bit rate mode : Variable
Bit rate : 4 222 kb/s
Maximum bit rate : 6 000 kb/s
Width : 720 pixels
Height : 576 pixels
Display aspect ratio : 4:3
Frame rate : 25.000 FPS
Standard : PAL
Color space : YUV
Chroma subsampling : 4:2:0
Bit depth : 8 bits
Scan type : Interlaced
Scan order : Top Field First
Compression mode : Lossy
Bits/(Pixel*Frame) : 0.407
Time code of first frame : 09:16:39:01
Time code source : Group of pictures header
GOP, Open/Closed : Closed
Stream size : 953 MiB (93%)

Audio
ID : 192 (0xC0)
Format : MPEG Audio
Format version : Version 1
Format profile : Layer 2
Duration : 31 min 33 s
Bit rate mode : Constant
Bit rate : 224 kb/s
Channel(s) : 2 channels
Sampling rate : 48.0 kHz
Compression mode : Lossy
Stream size : 50.6 MiB (5%)

Format:
PAL

Set List/Chapters:
Comin' Home
Plaster Caster
Mr. Speed
Goin' Blind
Sure Know Something
Two Timer
C'mon and Love Me
Take Me
Domino
Do You Love Me
She
Hard Luck Woman
Rock Bottom
Nothin' to Lose
A World Without Heroes
Calling Dr. Love
Shandi
See You Tonite
Let's Put the X in Sex
God of Thunder
Got to Choose
I Still Love You
Christine Sixteen
Forever
Heaven's on Fire
Strutter
Lick It Up
Rock and Roll All Nite
I Love It Loud

Checksums or Fingerprints:
# MD5 checksums generated by MD5summer (http://www.md5summer.org)
# Generated 8/11/2018 12:47:06 PM

15164ee94ec478dfca6180d58e8a0d32 *VIDEO_TS.BUP
15164ee94ec478dfca6180d58e8a0d32 *VIDEO_TS.IFO
2c7ad6039f68a84fd8ce6174fc442048 *VTS_01_0.BUP
2c7ad6039f68a84fd8ce6174fc442048 *VTS_01_0.IFO
16277bc34a59b47ac0b1688d0ef46436 *VTS_01_0.VOB
598140cfbc8e1bf104f95722cc219190 *VTS_01_1.VOB
4b80e8625faadcdc4fcbf8c1e94ba531 *VTS_01_2.VOB
466571c680e78dc48688ffcb4f0a11b3 *VTS_01_3.VOB
c6c6a2600bfe343e2c321b7fb7a99ce4 *VTS_01_4.VOB