Last update: 2018-11-13, 00:16:58

Torrent details

Kiss - 1990-10-27 New Haven, CT, USA   
Artist:
Kiss

Show or Bootleg Title:
1990-10-27 New Haven, CT, USA

Show Venue:
New Haven Coliseum

Source:
DVD - Audience

Video Quality/Production Info:
Skulljam9 Edition

Audio/Video Specs:
General
Format : MPEG-PS
File size : 1 024 MiB
Duration : 29 min 31 s
Overall bit rate mode : Variable
Overall bit rate : 4 849 kb/s

Video
ID : 224 (0xE0)
Format : MPEG Video
Format version : Version 2
Format profile : Main@Main
Format settings, BVOP : Yes
Format settings, Matrix : Custom
Format settings, GOP : M=3, N=15
Format settings, picture struc : Frame
Duration : 29 min 31 s
Bit rate mode : Variable
Bit rate : 4 368 kb/s
Maximum bit rate : 7 530 kb/s
Width : 720 pixels
Height : 480 pixels
Display aspect ratio : 4:3
Frame rate : 29.970 (30000/1001) FPS
Standard : NTSC
Color space : YUV
Chroma subsampling : 4:2:0
Bit depth : 8 bits
Scan type : Interlaced
Scan order : Top Field First
Compression mode : Lossy
Bits/(Pixel*Frame) : 0.422
Time code of first frame : 00:00:00:00
Time code source : Group of pictures header
GOP, Open/Closed : Open
GOP, Open/Closed of first fram : Closed
Stream size : 923 MiB (90%)
Matrix coefficients : BT.601

Audio
ID : 189 (0xBD)-128 (0x80)
Format : AC-3
Format/Info : Audio Coding 3
Format settings, Endianness : Big
Muxing mode : DVD-Video
Duration : 29 min 31 s
Bit rate mode : Constant
Bit rate : 384 kb/s
Channel(s) : 2 channels
Channel positions : Front: L R
Sampling rate : 48.0 kHz
Frame rate : 31.250 FPS (1536 SPF)
Bit depth : 16 bits
Compression mode : Lossy
Stream size : 81.1 MiB (8%)
Service kind : Complete Main

Format:
NTSC

Set List/Chapters:
Intro / I stole your love
Deuce
Heaven's on fire
Crazy, crazy nights
Black diamond
Shout it out loud
Strutter
Calling dr. Love
I was made for lovin' you
Rise to it
Fits like a glove
Hide your heart
Lick it up
God of thunder
Forever
Cold gin
Tears are falling
I love it loud
Love gun
Detroit rock city
I want you
Rock and roll all nite

Checksums or Fingerprints:
# MD5 checksums generated by MD5summer (http://www.md5summer.org)
# Generated 8/11/2018 12:35:00 PM

6c92aa7ec5c3a37dffea080de9831015 *VIDEO_TS.BUP
6c92aa7ec5c3a37dffea080de9831015 *VIDEO_TS.IFO
b1838f86a14ce1039847cd00382ea175 *VIDEO_TS.VOB
8bf072adb47d795e31961e616392226b *VTS_01_0.BUP
8bf072adb47d795e31961e616392226b *VTS_01_0.IFO
8b765f8c4b561726a2dbb3602209b739 *VTS_01_0.VOB
ee33d16da5933af160e4a7b035281188 *VTS_01_1.VOB
0fff72f1f9eee7cc903b2cd9f756063c *VTS_01_2.VOB
cc65af50cdd4e4638245e713c1254c0c *VTS_01_3.VOB
2cf195ece66ea60927430409c15e5ab3 *VTS_01_4.VOB
eecd2fa405289f1d25493d2ee49ce0a7 *VTS_01_5.VOB