Last update: 2018-11-13, 00:16:58

Torrent details

Kiss - 1990-08-21 Houston, TX, USA (DVD9)   
Artist:
Kiss

Show or Bootleg Title:
1990-08-21 Houston, TX, USA

Show Venue:
The Summit

Source:
DVD - Audience

Video Quality/Production Info:
Skulljam9 Edition

Audio/Video Specs:
General
Format : MPEG-PS
File size : 1 024 MiB
Duration : 15 min 15 s
Overall bit rate mode : Variable
Overall bit rate : 9 381 kb/s

Video
ID : 224 (0xE0)
Format : MPEG Video
Format version : Version 2
Format profile : Main@Main
Format settings, BVOP : Yes
Format settings, Matrix : Custom
Format settings, GOP : M=3, N=15
Format settings, picture struc : Frame
Duration : 15 min 15 s
Bit rate mode : Variable
Bit rate : 7 680 kb/s
Width : 720 pixels
Height : 480 pixels
Display aspect ratio : 4:3
Frame rate : 29.970 (30000/1001) FPS
Standard : NTSC
Color space : YUV
Chroma subsampling : 4:2:0
Bit depth : 8 bits
Scan type : Interlaced
Scan order : Bottom Field First
Compression mode : Lossy
Bits/(Pixel*Frame) : 0.741
Time code of first frame : 00:00:00:00
Time code source : Group of pictures header
GOP, Open/Closed : Open
GOP, Open/Closed of first fram : Closed
Stream size : 836 MiB (82%)
Color primaries : BT.601 NTSC
Transfer characteristics : BT.601
Matrix coefficients : BT.601

Audio
ID : 189 (0xBD)-160 (0xA0)
Format : PCM
Format settings, Endianness : Big
Format settings, Sign : Signed
Muxing mode : DVD-Video
Duration : 15 min 15 s
Bit rate mode : Constant
Bit rate : 1 536 kb/s
Channel(s) : 2 channels
Sampling rate : 48.0 kHz
Bit depth : 16 bits
Stream size : 168 MiB (16%)

Format:
NTSC

Set List/Chapters:
I Stole Your Love
Deuce
Heaven's on Fire
Crazy Crazy Nights
Black Diamond
Shout It Out Loud
Strutter
Calling Dr. Love
I Was Made for Lovin' You
Oh! Susanna
Rise to It
Fits Like a Glove
Hide Your Heart
Lick It Up
God of Thunder
Forever
Cold Gin
Tears Are Falling
I Love It Loud
Love Gun
Detroit Rock City
Encore:
I Want You
Rock and Roll All Nite

Checksums or Fingerprints:
# MD5 checksums generated by MD5summer (http://www.md5summer.org)
# Generated 8/11/2018 12:10:54 PM

685e7957e4680384474ecab7b011bc69 *VIDEO_TS.BUP
685e7957e4680384474ecab7b011bc69 *VIDEO_TS.IFO
9f66aaabc15babf9787c2c9e43b29736 *VIDEO_TS.VOB
e719756406de1c0797a0496e0adf8025 *VTS_01_0.BUP
e719756406de1c0797a0496e0adf8025 *VTS_01_0.IFO
e9d42423a6eee3dc4fc5effb6a53309d *VTS_01_0.VOB
a85f2b92a00223a1f09329499d43d0ee *VTS_01_1.VOB
e972d6814947eeb0b0f6c5cf53ff9b5f *VTS_01_2.VOB
7c1147ae276aa9ab08bd317a192d0606 *VTS_01_3.VOB
8b8bec3e2a00b76c5096f304ac3f710f *VTS_01_4.VOB
46b61924913b676042e12a960e094a3c *VTS_01_5.VOB
247eff78ca0b80637255ec4fc46f1d8d *VTS_01_6.VOB
ca96cda4ef4894d1af3c19560a7ae90c *VTS_01_7.VOB
556c99939897c5fb4c1dd62441f44f5c *VTS_01_8.VOB