Last update: 2018-11-13, 00:16:58

Torrent details

Kiss - 1995-07-23 Cleveland, OH   
Artist:
Kiss

Show or Bootleg Title:
1995-07-23 Cleveland, OH

Show Venue:
Sheraton City Center

Source:
DVD - Audience

Video Quality/Production Info:


Audio/Video Specs:
General
Format : MPEG-PS
File size : 1 024 MiB
Duration : 34 min 3 s
Overall bit rate mode : Variable
Overall bit rate : 4 203 kb/s

Video
ID : 224 (0xE0)
Format : MPEG Video
Format version : Version 2
Format profile : Main@Main
Format settings, BVOP : Yes
Format settings, Matrix : Custom
Format settings, GOP : M=3, N=15
Format settings, picture struc : Frame
Duration : 34 min 3 s
Bit rate mode : Variable
Bit rate : 3 895 kb/s
Maximum bit rate : 4 300 kb/s
Width : 720 pixels
Height : 480 pixels
Display aspect ratio : 4:3
Frame rate : 29.970 (30000/1001) FPS
Standard : NTSC
Color space : YUV
Chroma subsampling : 4:2:0
Bit depth : 8 bits
Scan type : Interlaced
Scan order : Top Field First
Compression mode : Lossy
Bits/(Pixel*Frame) : 0.376
Time code of first frame : 00:00:00:00
Time code source : Group of pictures header
GOP, Open/Closed : Open
GOP, Open/Closed of first fram : Closed
Stream size : 949 MiB (93%)
Color primaries : BT.601 NTSC
Transfer characteristics : BT.601
Matrix coefficients : BT.601

Audio
ID : 192 (0xC0)
Format : MPEG Audio
Format version : Version 1
Format profile : Layer 2
Duration : 34 min 3 s
Bit rate mode : Constant
Bit rate : 224 kb/s
Channel(s) : 2 channels
Sampling rate : 48.0 kHz
Compression mode : Lossy
Stream size : 54.6 MiB (5%)

Format:
NTSC

Set List/Chapters:
Comin' Home
Goin' Blind
Nowhere To Run
Sure Know Something
Spit
Nothin' To Lose
A World Without Heroes
Love Her All I Can
Do You Love Me?
Domino
Shandi
Take Me
Kissin' Time
Calling Dr. Love
Got To Choose
Strange Ways
Rock Bottom
God Of Thunder
See You Tonight
Magic Touch
Goodbye
Christine Sixteen
Hard Luck Woman
Let's Put The X In Sex
C'mon & Love Me
Plaster Caster
I Still Love You
All The Way
100,000 Years
Heavens On Fire
Lick It Up
Cold Gin

Checksums or Fingerprints:
# MD5 checksums generated by MD5summer (http://www.md5summer.org)
# Generated 8/11/2018 1:14:04 PM

8bb41715ce02818f1e4d89e5d280c964 *VIDEO_TS.BUP
8bb41715ce02818f1e4d89e5d280c964 *VIDEO_TS.IFO
3072b4bd3fabff8f994306eef66e4921 *VIDEO_TS.VOB
93ba1a7963d09fa18dcf512564e6d861 *VTS_01_0.BUP
93ba1a7963d09fa18dcf512564e6d861 *VTS_01_0.IFO
905cb4d47281b9feaa4fe394388f417f *VTS_01_1.VOB
c53b470c92dbcff960c1ae293fd6312a *VTS_01_2.VOB
06e0068e921ea13956f3e604c9f763dd *VTS_01_3.VOB
45c5c2555fe0cd419baf6b6d8a3ae607 *VTS_01_4.VOB