Last update: 2018-11-13, 00:16:58

Torrent details

Kiss - 2000-09-12 Clarkston, MI, USA   
Artist:
Kiss

Show or Bootleg Title:
2000-09-12 Clarkston, MI, USA

Show Venue:
Pine Knob Music Theatre

Source:
DVD - Pro Shot

Video Quality/Production Info:


Audio/Video Specs:
General
Format : MPEG-PS
File size : 1 024 MiB
Duration : 17 min 21 s
Overall bit rate mode : Variable
Overall bit rate : 8 247 kb/s

Video
ID : 224 (0xE0)
Format : MPEG Video
Format version : Version 2
Format profile : Main@Main
Format settings, BVOP : Yes
Format settings, Matrix : Custom
Format settings, GOP : M=3, N=15
Format settings, picture struc : Frame
Duration : 17 min 21 s
Bit rate mode : Variable
Bit rate : 7 827 kb/s
Maximum bit rate : 9 555 kb/s
Width : 704 pixels
Height : 480 pixels
Display aspect ratio : 4:3
Frame rate : 29.970 (30000/1001) FPS
Standard : NTSC
Color space : YUV
Chroma subsampling : 4:2:0
Bit depth : 8 bits
Scan type : Interlaced
Scan order : Top Field First
Compression mode : Lossy
Bits/(Pixel*Frame) : 0.773
Time code of first frame : 00:00:00:00
Time code source : Group of pictures header
Stream size : 972 MiB (95%)
Color primaries : BT.601 NTSC
Transfer characteristics : BT.601
Matrix coefficients : BT.601

Audio
ID : 189 (0xBD)-128 (0x80)
Format : AC-3
Format/Info : Audio Coding 3
Format settings, Endianness : Big
Muxing mode : DVD-Video
Duration : 17 min 21 s
Bit rate mode : Constant
Bit rate : 256 kb/s
Channel(s) : 2 channels
Channel positions : Front: L R
Sampling rate : 48.0 kHz
Frame rate : 31.250 FPS (1536 SPF)
Bit depth : 16 bits
Compression mode : Lossy
Delay relative to video : -51 ms
Stream size : 31.8 MiB (3%)
Service kind : Complete Main

Format:
NTSC

Set List/Chapters:
Detroit rock city
Let me go, rock 'n' roll (cut)
2,000 man
Ace's solo
Lick it up (ending only)
God of thunder
100,000 years (partial)
Love gun
I still love you (cut)
Black diamond (partial)
Beth
Rock and roll all nite

Checksums or Fingerprints:
# MD5 checksums generated by MD5summer (http://www.md5summer.org)
# Generated 8/11/2018 3:38:52 PM

6d931ed778f194f89984b478afa7242e *Thumbs.db
881768a3050234e4c9efe4fcdc2a1089 *VIDEO_TS.BUP
881768a3050234e4c9efe4fcdc2a1089 *VIDEO_TS.IFO
b31f44ee189a3b4bfec0061126579cc2 *VIDEO_TS.VOB
de3467631f5a065c33a9023d7baa7b07 *VTS_01_0.BUP
de3467631f5a065c33a9023d7baa7b07 *VTS_01_0.IFO
f48f2a1b03d78b0ef0bf42c9f88cfa27 *VTS_01_0.VOB
b097de1a6977de4460a0f0aebd45db58 *VTS_01_1.VOB
a0a9b6d1960fa76f67c009455f411894 *VTS_01_2.VOB
b5a54317e32c6bc0f41fae62a46f3a6e *VTS_01_3.VOB
81dd3383cb4dd83e20b6ac612b58d217 *VTS_01_4.VOB