Last update: 2018-11-13, 00:16:58

Torrent details

Kiss - 1995-07-25 Toronto, Canada   
Artist:
Kiss

Show or Bootleg Title:
1995-07-25 Toronto, Canada

Show Venue:
Hilton International

Source:
DVD - Audience

Video Quality/Production Info:
Sullyland Edition

Audio/Video Specs:
General
Format : MPEG-PS
File size : 1 024 MiB
Duration : 31 min 4 s
Overall bit rate mode : Variable
Overall bit rate : 4 607 kb/s

Video
ID : 224 (0xE0)
Format : MPEG Video
Format version : Version 2
Format profile : Main@Main
Format settings, BVOP : Yes
Format settings, Matrix : Default
Format settings, GOP : M=3, N=15
Format settings, picture struc : Frame
Duration : 31 min 4 s
Bit rate mode : Variable
Bit rate : 4 323 kb/s
Maximum bit rate : 8 000 kb/s
Width : 720 pixels
Height : 480 pixels
Display aspect ratio : 4:3
Frame rate : 29.970 (30000/1001) FPS
Standard : NTSC
Color space : YUV
Chroma subsampling : 4:2:0
Bit depth : 8 bits
Scan type : Interlaced
Scan order : Bottom Field First
Compression mode : Lossy
Bits/(Pixel*Frame) : 0.417
Time code of first frame : 00:00:00;00
Time code source : Group of pictures header
GOP, Open/Closed : Closed
Stream size : 961 MiB (94%)
Color primaries : BT.470 System M
Transfer characteristics : BT.470 System M
Matrix coefficients : BT.601

Audio
ID : 189 (0xBD)-128 (0x80)
Format : AC-3
Format/Info : Audio Coding 3
Format settings, Endianness : Big
Muxing mode : DVD-Video
Duration : 31 min 4 s
Bit rate mode : Constant
Bit rate : 192 kb/s
Channel(s) : 2 channels
Channel positions : Front: L R
Sampling rate : 48.0 kHz
Frame rate : 31.250 FPS (1536 SPF)
Bit depth : 16 bits
Compression mode : Lossy
Stream size : 42.7 MiB (4%)
Service kind : Complete Main

Format:
NTSC

Set List/Chapters:
01 God of thunder
02 Plaster caster
03 Christine sixteen
04 Going blind
05 Love em leave em
06 Room service
07 Anyway you want it
08 100.000 Years
09 I still love you
10 2000 Man
11 Hide your heart
12 Anyway you slice it
13 Let me know
14 A world without heroes
15 Hard luck woman
16 Everytime i look at you
17 Nothin`to lose
18 Rock bottom
19 Tonight you belong to me
20 Coming home
21 Got ot choose
22 Sure know something
23 Take me
24 Domino
25 Do you love me
26 Sweet pain
27 C`mon and love me
28 Love gun

Checksums or Fingerprints:
# MD5 checksums generated by MD5summer (http://www.md5summer.org)
# Generated 8/11/2018 1:33:29 PM

adf1cacf864007d53917ff961b3e6209 *VIDEO_TS.BUP
adf1cacf864007d53917ff961b3e6209 *VIDEO_TS.IFO
4cdec5075f59db215e4731e4b585884c *VIDEO_TS.VOB
7ff9d9c87885bd25d9a479cb38c483ee *VTS_01_0.BUP
7ff9d9c87885bd25d9a479cb38c483ee *VTS_01_0.IFO
e33945ed13ebf18d7fe908dd1c5aa7e3 *VTS_01_0.VOB
c77769733f16ee3bd6b7328b74052ff1 *VTS_01_1.VOB
d49f942abe840e9fed8f1cbcfb5ef7e0 *VTS_01_2.VOB
717d2e51cc06d40adbf161a91369c621 *VTS_01_3.VOB
ea8cfc30d05c59ec8a6f79c94d61f5cf *VTS_01_4.VOB
186d4ddbeb1ceb353e5c90753990c319 *VTS_01_5.VOB