Last update: 2018-11-13, 00:16:58

Torrent details

Kiss - 1990-10-14 Detroit, MI, USA   
Artist:
Kiss

Show or Bootleg Title:
1990-10-14 Detroit, MI, USA

Show Venue:
The Palace of Auburn Hills

Source:
DVD - Pro Shot

Video Quality/Production Info:
Tiroler Edition

Audio/Video Specs:
General
Format : MPEG-PS
File size : 1 024 MiB
Duration : 43 min 48 s
Overall bit rate mode : Variable
Overall bit rate : 3 268 kb/s

Video
ID : 224 (0xE0)
Format : MPEG Video
Format version : Version 2
Format profile : Main@Main
Format settings, BVOP : Yes
Format settings, Matrix : Default
Format settings, GOP : Variable
Duration : 43 min 48 s
Bit rate mode : Variable
Bit rate : 2 947 kb/s
Maximum bit rate : 9 000 kb/s
Width : 720 pixels
Height : 576 pixels
Display aspect ratio : 4:3
Frame rate : 25.000 FPS
Standard : PAL
Color space : YUV
Chroma subsampling : 4:2:0
Bit depth : 8 bits
Scan type : Progressive
Compression mode : Lossy
Bits/(Pixel*Frame) : 0.284
Time code of first frame : 00:00:00:00
Time code source : Group of pictures header
GOP, Open/Closed : Open
Stream size : 923 MiB (90%)

Audio
ID : 189 (0xBD)-128 (0x80)
Format : AC-3
Format/Info : Audio Coding 3
Format settings, Endianness : Big
Muxing mode : DVD-Video
Duration : 43 min 48 s
Bit rate mode : Constant
Bit rate : 256 kb/s
Channel(s) : 2 channels
Channel positions : Front: L R
Sampling rate : 48.0 kHz
Frame rate : 31.250 FPS (1536 SPF)
Bit depth : 16 bits
Compression mode : Lossy
Stream size : 80.2 MiB (8%)
Service kind : Complete Main

Format:
PAL

Set List/Chapters:
I Stole Your Love
Deuce
Heaven's on Fire
Crazy Crazy Nights
Black Diamond
Shout It Out Loud
Strutter
Calling Dr. Love
I Was Made for Lovin' You
Rise to It
Fits Like a Glove
Hide Your Heart
Lick It Up
God of Thunder
Forever
Cold Gin
Tears Are Falling
I Love It Loud
Love Gun
Detroit Rock City

Encore:
I Want You
Rock and Roll All Nite

Checksums or Fingerprints:
# MD5 checksums generated by MD5summer (http://www.md5summer.org)
# Generated 8/11/2018 12:20:08 PM

1a5a82d4eb893e25749d47b942d3c86d *VIDEO_TS.BUP
1a5a82d4eb893e25749d47b942d3c86d *VIDEO_TS.IFO
1795c3e91b8c6de9c3027f2574d4b11d *VIDEO_TS.VOB
ce1c9b939d122b8024bb31262a16625d *VTS_01_0.BUP
ce1c9b939d122b8024bb31262a16625d *VTS_01_0.IFO
4655eb30c4084f5c230c263bf15855da *VTS_01_0.VOB
14dc7dd4d4f7c938e1bce008f2f11909 *VTS_01_1.VOB
cea4c46c18c23a14b69be4bcd7ae57c9 *VTS_01_2.VOB
1191e00f5c5f6ccbfa298360b6b97c5d *VTS_01_3.VOB