Last update: 2018-01-16, 23:17:33

Torrent details

Motorhead - Belafast,Ireland 1981-12-23   
Artist:
Motorhead

Show or Bootleg Title:
Belafast,Ireland 1981-12-23

Show Venue:


Source:
DVD - Pro Shot

Video Quality/Production Info:
ok quality

Audio/Video Specs:
General
Complete name : C:\Users\Juzzi\Downloads\Motorhead - Belafast,Ireland 1981-12-23\VIDEO_TS\VTS_01_1.VOB
Format : MPEG-PS
File size : 1 000 MiB
Duration : 16 min 24 s
Overall bit rate mode : Variable
Overall bit rate : 8 524 kb/s
Writing library : encoded by TMPGEnc (ver. 2.54.36.134)

Video
ID : 224 (0xE0)
Format : MPEG Video
Format version : Version 2
Format profile : Main@Main
Format settings, BVOP : Yes
Format settings, Matrix : Custom
Format settings, GOP : M=3, N=15
Format settings, picture struc : Frame
Duration : 16 min 24 s
Bit rate mode : Variable
Bit rate : 8 000 kb/s
Width : 720 pixels
Height : 576 pixels
Display aspect ratio : 4:3
Frame rate : 25.000 FPS
Standard : PAL
Color space : YUV
Chroma subsampling : 4:2:0
Bit depth : 8 bits
Scan type : Interlaced
Scan order : Bottom Field First
Compression mode : Lossy
Bits/(Pixel*Frame) : 0.772
Time code of first frame : 00:00:00:00
Time code source : Group of pictures header
GOP, Open/Closed : Open
GOP, Open/Closed of first fram : Closed
Stream size : 935 MiB (94%)
Writing library : TMPGEnc 2.54.36.134
Color primaries : BT.601 PAL
Transfer characteristics : BT.470 System B, BT.470 System G
Matrix coefficients : BT.601

Audio
ID : 192 (0xC0)
Format : MPEG Audio
Format version : Version 1
Format profile : Layer 2
Duration : 16 min 24 s
Bit rate mode : Constant
Bit rate : 384 kb/s
Channel(s) : 2 channels
Sampling rate : 48.0 kHz
Compression mode : Lossy
Stream size : 45.0 MiB (5%)

Menu

Format:
NTSC

Set List/Chapters:
Motorhead - Belafast,Ireland 1981-12-23

great gig from legendary line-up era...

Ace of spades
The hammer
We are the road crew
Bite the bullet
The chase is better than catch
Overkill
Bomber

Checksums or Fingerprints:
# MD5 checksums generated by MD5summer (http://www.md5summer.org)
# Generated 13.1.2018 0:07:11

0b101eaf304a9cee1e5909ee50641cfd *VIDEO_TS.BUP
0b101eaf304a9cee1e5909ee50641cfd *VIDEO_TS.IFO
774703b2abe6f493cce1fe86ab9555c3 *VIDEO_TS.VOB
d3f92c3d0813b03e61595e2d3e450519 *VTS_01_0.BUP
d3f92c3d0813b03e61595e2d3e450519 *VTS_01_0.IFO
5867135181d79d0f698a75edffd07245 *VTS_01_0.VOB
6a5bea932d9a4603b0bd21f7464439de *VTS_01_1.VOB
d2018f6f9a2855ec7e1a8cd825ad45ad *VTS_01_2.VOB